#TITLE:Don't You Wanna be Free;
#SUBTITLE:;
#ARTIST:Wain L;
#TITLETRANSLIT:;
#SUBTITLETRANSLIT:;
#ARTISTTRANSLIT:;
#CREDIT:;
#BANNER:dywbf-banner.JPG;
#BACKGROUND:dywbf-bg.jpg;
#LYRICSPATH:;
#CDTITLE:!TEEXcdtitle.png;
#MUSIC:Don't You Wanna Be Free.mp3;
#OFFSET:-6.456;
#SAMPLESTART:67.955;
#SAMPLELENGTH:12.000;
#SELECTABLE:YES;
#BPMS:0.000=156.000;
#STOPS:;
#BGCHANGES:;
// cache tags:
#FIRSTBEAT:0.000;
#LASTBEAT:255.000;
#SONGFILENAME:Songs/Music V.I.P ^_^/Don't You Wanna be Free- TEEX/Don't You Wanna be Free.sm;
#HASMUSIC:1;
#HASBANNER:1;
#MUSICLENGTH:104.937;
// end cache tags

//---------------dance-single - ----------------
#NOTES:
     dance-single:
     :
     Hard:
     10:
     0.843,1.000,0.248,0.210,0.681,571.000,26.000,22.000,0.000,0.000:
2001
0000
0000
3200
0000
0000
0320
0000
,
0000
0032
0000
0000
0103
0000
0101
0000
,
0110
0000
0020
0000
0000
0230
0000
0000
,
0302
0000
0000
1003
,
0011
0010
1000
0100
0001
0100
1000
0010
,
0100
0001
0010
1000
0010
0001
0100
0010
,
0100
0001
0010
1000
0010
0011
0001
1000
,
0110
0010
0001
0100
0010
0000
1001
0000
,
1001
0000
1000
0100
1000
0000
0001
0000
0100
0000
0001
0000
1000
0000
0010
0000
,
1000
0000
0001
0000
0010
0000
0001
1000
0100
0000
0001
0000
0100
0000
0010
0000
,
1000
0000
0010
0000
0001
0000
0000
1000
0100
0000
0100
0000
0010
0000
0001
0100
,
0010
0000
0010
0000
0100
0000
0001
0100
0001
0000
1000
0000
0100
0010
0100
1000
,
0001
0010
0100
1000
0010
0000
1000
0100
,
0001
0100
1000
0010
0100
0000
0001
0100
,
1000
0010
0100
0001
0010
1000
0001
0100
,
1002
0000
1000
0000
,
1003
0100
1000
0010
0100
0010
1000
0100
1000
0010
0100
0001
0010
0001
0100
0010
,
0100
0001
1000
0010
1000
0001
0100
0001
1000
0010
1000
0100
0010
0001
0100
0010
,
1000
0100
0010
0001
0100
0001
0100
0001
1000
0001
1000
0100
1000
0010
0100
0001
,
0010
0001
0100
0010
1000
0100
1000
0010
0100
0001
1000
0001
0010
0001
0010
0100
,
1000
0100
1000
0010
0100
0001
1000
0100
1000
0010
0100
0010
0100
0001
0010
0001
,
0010
0100
0010
0100
1000
0001
1000
0001
0010
0100
0010
0100
0020
0000
0000
0000
,
0130
0010
0001
0100
0010
1000
0100
1000
0010
0100
0010
0100
0001
1000
0100
1000
,
0001
0010
0001
0010
0100
1000
0100
1000
0001
0000
0000
0000
0011
0000
0000
0000
,
1000
0010
1000
0001
0010
0001
0100
0100
,
0010
1000
0100
0000
0100
0010
0001
0100
,
0010
1000
0100
0010
0100
0001
0100
0010
,
0001
0000
1000
0000
0010
1000
0010
1000
0010
1000
0010
0000
0001
0000
0010
0000
,
0001
0100
0010
0100
0001
1000
0010
1000
,
0001
1000
0100
0000
0010
0100
1000
0001
,
0010
0100
1001
0000
0101
0000
0010
1000
,
0000
0000
0100
0000
1000
0100
1000
0100
0010
0001
0010
0001
0100
0010
0100
0010
,
0100
0001
1000
0010
0001
2000
0000
0000
,
0000
0000
3100
0010
1000
0200
0000
0000
,
0310
0001
0100
0010
0000
0110
0000
0000
,
0100
0010
0100
0010
1000
0100
0020
0000
,
2030
0000
3002
0000
,
0103
0010
0001
0100
0010
1000
0010
0100
,
0010
0001
0010
1000
0100
1000
0010
0100
,
0001
0010
0100
0110
0000
1001
0000
0100
,
0010
0000
0101
0000
0001
0010
0100
2000
,
0000
3100
1000
0010
0100
0001
0010
0200
,
0000
1300
0001
0100
0001
0001
0100
0010
,
0000
1100
0000
0110
0000
0101
0001
0100
,
1000
0100
0001
0010
1000
0010
0100
0020
,
0000
0031
0100
1000
0100
0001
1000
0100
,
0001
0100
1000
0010
0001
0010
1000
0002
,
0000
0000
1003
0000
0100
1000
0100
1000
0010
0100
0010
0100
0001
0010
0001
0010
,
0100
0000
1100
0000
1000
0001
0100
0002
,
0000
0103
0001
1000
0100
0010
0010
0010
,
0000
0100
1000
0001
0100
0100
0010
0100
,
0101
0000
0001
0000
1000
0000
0001
0000
0000
0000
0010
0000
0100
0010
0100
0010
,
0001
0100
0001
0100
0010
0000
0010
0000
1000
0000
0100
0000
1000
0000
2000
0000
,
0000
3020
0000
0230
0000
0300
0001
0010
,
0100
0000
0001
0100
0010
0001
0100
0001
,
0000
0101
0000
0110
0000
1100
0000
0000
,
1000
0100
0010
0001
1000
0010
0100
0001
1000
0100
1000
0100
0010
0001
0010
0001
,
1000
0010
1000
0010
0100
0001
0100
0001
0100
0010
0100
0010
1000
0001
1000
0001
,
0100
0001
0100
0001
1000
0010
1000
0010
0100
0010
1000
0001
0010
0100
0010
0100
,
1000
0001
1000
0001
0100
0001
0010
0100
1000
0010
0100
0010
1000
0100
1000
0010
,
0100
0010
0100
0001
0010
0001
0100
0010
0100
0001
0010
0001
0100
0010
0100
0010
,
1000
0100
0010
0100
1000
0001
0100
0010
0100
0010
1000
0001
1000
0001
0100
0001
,
0010
0100
0010
0001
0100
0001
0010
0100
0010
0100
1000
0010
1000
0100
0010
0001
,
1000
0010
0100
0010
1000
0001
0100
0000
0110
0000
0000
0000
1001
0000
0000
0000
;
